extratorrent - A Fan Made Alternative Login   |   Register
Important Information
Registrations are open now
-------------------------------------

Please click here to register with Extratorrent2 to recieve latest updates, add bookmarks and to post comments.

Friends
Friends

1) ProxyFix

Extratorrent2 > Categories > Movies > A..AA.(2018).HDRip.720p.Hindi.Dubbed.H264.AAC.-.LatestHDmovies torrent


Browse Movies torrents

A..AA.(2018).HDRip.720p.Hindi.Dubbed.H264.AAC.-.LatestHDmovies torrent


Download torrent: Download A..AA.(2018).HDRip.720p.Hindi.Dubbed.H264.AAC.-.LatestHDmovies torrent Magnet link Bookmark Torrent: A..AA.(2018).HDRip.720p.Hindi.Dubbed.H264.AAC.-.LatestHDmovies   A..AA.(2018).HDRip.720p.Hindi.Dubbed.H264.AAC.-.LatestHDmovies torrent
Info hash: 612E81DC2BEEC0778BFE41EBAE4CE004206962EC
Category: Categories > Movies
Trackers:
View all torrent trackers >
Health:
 seeds: 7 ,  leechers: 5 |  Update >
Torrent language: Hindi Hindi
Total Size: 1.4 GB
Files List:
1    View torrent files >
Uploader:
LatestHDM
Torrent added: September 2, 2018, 5:19 pm
Tags: A.AA, 2018, A, AA, 2018
Users rating: ---, not rated. please login to rate.

Download A..AA.(2018).HDRip.720p.Hindi.Dubbed.H264.AAC.-.LatestHDmovies torrent



Torrent Description

[b]



visit Now - http://LatestHDmovies.Org



General
Complete name : C:\Users\latest\Downloads\Video\A..AA.(2018).HDRip.720p.Hindi.Dubbed.H264.AAC.-.LatestHDmovies.mp4
Format : MPEG-4
Format profile : Base Media
Codec ID : isom (isom/iso2/avc1/mp41)
File size : 1.40 GiB
Duration : 2 h 32 min
Overall bit rate : 1 309 kb/s
Movie name : http://LatestHDMovies.Org
Writing application : Lavf57.83.100

Video
ID : 1
Format : AVC
Format/Info : Advanced Video Codec
Format profile :
Format settings : CABAC / 5 Ref Frames
Format settings, CABAC : Yes
Format settings, ReFrames : 5 frames
Codec ID : avc1
Codec ID/Info : Advanced Video Coding
Duration : 2 h 32 min
Bit rate : 1 088 kb/s
Width : 1 280 pixels
Height : 542 pixels
Display aspect ratio : 2.35:1
Frame rate mode : Constant
Frame rate : 24.000 FPS
Color space : YUV
Chroma subsampling : 4:2:0
Bit depth : 8 bits
Scan type : Progressive
Bits/(Pixel*Frame) : 0.065
Stream size : 1.16 GiB (83%)
Title : http://LatestHDMovies.Org
Writing library : x264 core 148 r2643 5c65704
Encoding settings : cabac=1 / ref=5 / deblock=1:0:0 / analyse=0x3:0x113 / me=hex / subme=7 / psy=1 / psy_rd=1.00:0.00 / mixed_ref=1 / me_range=16 / chroma_me=1 / trellis=1 / 8x8dct=1 / cqm=0 / deadzone=21,11 / fast_pskip=1 / chroma_qp_offset=-2 / threads=8 / lookahead_threads=8 / sliced_threads=1 / slices=8 / nr=0 / decimate=1 / interlaced=0 / bluray_compat=0 / constrained_intra=0 / bframes=0 / weightp=2 / keyint=250 / keyint_min=24 / scenecut=40 / intra_refresh=0 / rc=abr / mbtree=0 / bitrate=1088 / ratetol=1.0 / qcomp=0.60 / qpmin=0 / qpmax=69 / qpstep=4 / ip_ratio=1.40 / aq=1:1.00
Codec configuration box : avcC

Audio
ID : 2
Format : AAC
Format/Info : Advanced Audio Codec
Format profile : LC
Codec ID : mp4a-40-2
Duration : 2 h 32 min
Bit rate mode : Constant
Bit rate : 214 kb/s
Channel(s) : 2 channels
Channel positions : Front: L R
Sampling rate : 44.1 kHz
Frame rate : 43.066 FPS (1024 SPF)
Compression mode : Lossy
Stream size : 233 MiB (16%)
Title : http://LatestHDMovies.Org
Default : Yes
Alternate group : 1








Download A..AA.(2018).HDRip.720p.Hindi.Dubbed.H264.AAC.-.LatestHDmovies torrent


Related Torrents


Comments   (please login to add your comment!)

10bit 1080p ac3     tanya tate dirty     bitchesabroad 17 12 29 lara west     1080p x265     lingerie     melissa xxx     goldenshowerpower     ninja     pix     dorcelclub 1080p     2016 720p     queen song     720p dual hindi     the majestic     november 2017     5 d     sadeempc     the accidental spy 2001     infinity     bitten s02e10     s05e04     toy time     2004 dual audio     photoshoot     


Home - Browse Torrents

Made with love by an Extratorrent Fan!